#TITLE:Sad love;
#SUBTITLE:;
#ARTIST:Dream Girls;
#TITLETRANSLIT:;
#SUBTITLETRANSLIT:;
#ARTISTTRANSLIT:;
#CREDIT:;
#BANNER:;
#BACKGROUND:;
#LYRICSPATH:;
#CDTITLE:sad love.png;
#MUSIC:Sad love.ogg;
#OFFSET:-0.440;
#SAMPLESTART:66.680;
#SAMPLELENGTH:14.840;
#SELECTABLE:YES;
#BPMS:0.000=134.000;
#STOPS:;
#BGCHANGES:;
// cache tags:
#FIRSTBEAT:3.000;
#LASTBEAT:324.000;
#SONGFILENAME:Songs/SDO/Sad love/Sad love.sm;
#HASMUSIC:1;
#HASBANNER:0;
#MUSICLENGTH:146.573;
// end cache tags

//---------------dance-single - ----------------
#NOTES:
     dance-single:
     :
     Hard:
     11:
     1.000,1.000,1.000,0.171,0.314,663.000,317.000,25.000,0.000,104.000:
0000
0000
0000
0000
0000
0000
0100
0010
,
1001
0000
0100
0000
1000
0000
0001
0000
0110
0000
1100
0010
0001
0000
0001
0000
,
1010
0000
0100
0000
0001
0000
0010
0000
1100
0000
0110
0001
0010
0000
0010
0000
,
1001
0000
0010
0000
0100
0000
0010
0000
1001
0000
1001
0100
0010
0000
0001
0000
,
1010
1000
1100
0110
0121
0000
0000
0000
,
1131
1000
1000
1000
1110
0010
0010
0010
,
0111
0001
0001
0001
0111
0100
0100
0100
,
1100
0000
0100
0000
1100
0000
1000
0000
1100
0000
0010
0001
0110
0000
0001
0000
,
1011
0000
0000
0000
0000
0000
1000
0000
0000
0000
0000
0000
0001
0000
0000
0000
0000
0000
1000
0000
0000
0000
0000
0000
0001
0000
0000
1000
0000
0000
0001
0000
0000
1000
0000
0000
0001
0000
1000
0000
0001
0000
1000
0000
0001
0000
1000
0000
,
0111
0100
1010
0001
1100
0110
0001
0100
,
1010
1000
1100
0100
0011
0110
1000
0001
,
1010
0000
0100
0000
0101
0000
0010
0000
1010
0000
0100
0100
0011
0000
1001
0000
,
1011
0000
1110
0000
1101
0000
1010
0000
1100
0110
0011
0100
1100
0000
1010
0000
,
1101
0110
1100
0010
1001
1100
1000
0100
,
0011
0001
0100
0010
0110
0011
1000
0100
,
1100
0100
0110
0001
1100
0010
0100
0010
,
1101
0000
1010
0000
1011
0000
0110
0000
1001
0100
1000
0100
0010
0001
0010
0001
,
2100
0010
0011
0100
3121
0100
0101
1000
,
1231
0010
1010
0001
1312
0110
1100
0010
,
1003
0010
1000
0100
0011
0010
0100
0010
,
1011
1010
1110
0101
1011
0000
1000
0100
,
1101
1000
1100
0100
1100
1000
1100
0010
,
0101
1000
0101
0010
0101
1000
0101
1000
,
1010
0001
0110
0100
1100
0100
1010
0100
,
1001
1001
1010
1100
0101
0000
0100
0010
,
1100
0000
0000
0110
0000
0000
0100
0000
0011
0000
0000
0000
0101
0000
0010
0000
,
1100
0000
0000
0110
0000
0000
1000
0000
0011
0000
0000
0000
0011
0000
0001
0000
,
1100
0010
1010
0100
0011
0001
0110
0010
,
1001
0101
1001
0101
0011
0000
0100
0010
,
1011
0010
1000
0100
0011
0010
0100
0010
,
1001
0010
0100
1000
0011
0001
0100
0010
,
1100
0000
0000
0110
0000
0000
0011
0000
1100
0000
0010
0000
0100
0000
0010
0000
,
1001
1010
1100
0110
0011
0001
0100
0010
,
1110
0010
1000
0100
0011
0000
0100
0010
,
1100
0000
0001
0000
0100
0000
1000
0000
0011
0000
0010
0001
1100
0000
0000
0000
,
1010
0010
1000
0100
0011
0001
0100
0000
,
1101
0000
1011
0000
1110
0000
0111
0000
1001
0010
0001
0010
0100
1000
0100
1000
,
0110
0001
0010
1000
0010
0100
0010
1000
0101
1000
0010
0001
1000
0100
0001
0100
,
0011
1000
0100
0010
1100
0001
0100
0001
0110
1000
0010
1000
0101
0010
1000
0100
,
1010
0001
1000
0001
1100
0010
1000
0010
0101
0010
0100
1000
0101
0010
0001
0010
,
1100
0010
1001
0010
0100
0010
0001
0010
1001
0100
1000
0100
0010
0001
0010
0001
,
2100
0010
0011
0100
3121
0100
0101
1000
,
1231
0010
1010
0001
0312
0110
1100
0010
,
1003
0100
0011
0110
1100
0110
0010
1000
,
1101
1110
0111
1011
0111
0000
0100
0010
,
1011
1000
1100
0010
0011
0110
1000
0100
,
1010
0001
0110
0100
1100
0110
1000
0100
,
1001
0000
0010
0000
1001
0000
0100
0000
0101
0000
0010
0100
1000
0000
0001
0000
,
1110
0000
1011
0000
0111
0000
1110
0000
1011
1000
0100
1000
0100
0010
0100
0010
,
1201
0001
1010
1000
1321
0100
1100
1000
,
2131
0100
0011
0100
3112
1000
1010
0100
,
1013
0000
1000
0000
0101
0000
0010
0000
1100
0000
0110
0001
0010
0000
0000
0000
,
1110
1011
1101
0111
1110
0000
0000
0000
,
1100
0000
0000
0110
0000
0000
0011
0000
0000
0000
0000
0000
0100
0000
0010
0000
,
1001
0000
0000
1001
0000
0000
1001
0000
0000
0000
0000
0000
0000
0000
0000
0000
,
1001
0000
0000
0110
0000
0000
1001
0000
0000
0000
0000
0000
0000
0000
0000
0000
,
1001
0000
0000
0000
0000
0000
1001
0000
0000
0000
0000
0000
1001
0000
0000
0000
0000
0000
1001
0000
0000
1000
0000
0000
0001
0000
0000
1000
0000
0000
0001
0000
0000
1000
0000
0000
0001
0000
1000
0000
0001
0000
1000
0000
0001
0000
1000
0000
,
0110
0000
0000
0110
0000
0000
0100
0000
1010
0000
0000
0000
0011
0000
1000
0000
,
0110
0000
0000
0110
0000
0000
0010
0000
0101
0000
0000
0000
0011
0000
1000
0000
,
0101
0000
1010
0001
0011
0100
1010
1000
,
1100
0110
0011
0110
1100
0000
0100
0010
,
1011
0000
0000
1100
0000
0000
0110
0000
0011
0000
0100
0000
1010
0000
1000
0000
,
1100
0000
0000
0110
0000
0000
0011
0000
1100
0000
0001
0000
0010
0000
0100
0000
,
1201
0000
0011
1300
1100
0010
0101
0010
,
1100
0110
0011
0000
,
1011
0000
0000
0010
0100
0000
0010
0000
0101
0000
0000
1000
0100
0000
0001
0000
,
0110
0000
0001
0010
0001
0000
0100
0000
1010
0000
1000
0000
0100
0000
0010
0000
,
0110
0000
0000
1100
0000
0000
0011
0000
0110
0000
1100
0000
0101
0000
0010
0000
,
1100
1010
1001
1001
0101
0000
0100
0010
,
1101
0000
1000
0100
0011
0000
0010
0100
,
1001
0000
0000
0000
1001
0000
0010
0000
1100
0000
0010
0100
0010
0000
0000
0000
,
1020
0000
1100
1030
0101
0010
0110
0000
,
1101
0000
1011
0000
0111
0000
1110
0000
1101
0010
0100
0010
0100
1000
0100
1000
,
1121
0100
1001
0100
1231
0001
0011
0010
,
1312
0100
1010
1000
2113
0010
0101
0001
,
3011
0000
0110
0000
1100
0000
0110
0000
0011
0000
0010
0100
1000
0000
1000
0000
,
1010
0000
0101
0000
1010
0000
0101
0000
1001
0010
0100
1000
0100
0010
0001
0010
,
1201
1010
0011
1010
1321
0101
1100
1001
,
2131
0101
0011
0110
3112
1010
1100
0110
,
1103
0000
0110
0000
1100
0000
0010
0000
0101
0000
0110
0001
0010
0000
0000
0000
,
1101
1010
0111
1001
1221
0000
0000
0000
,
0330
0000
0000
0000
;
